Amy Winehouse - Back To Black - VINYL + free MP3 - £12 @ Amazon Prime (£13.99 non-Prime)
168°Expired

Amy Winehouse - Back To Black - VINYL + free MP3 - £12 @ Amazon Prime (£13.99 non-Prime)

15
Found 24th Dec 2017
Great Album and decent price! MP3 version also included.
Community Updates

Groups

15 Comments
Same price at asda instore (picked it up today)
So sad, the wages of sin....
She was a bit overrated lets all be honest here.
Edited by: "red23" 24th Dec 2017
Vinyl what next crappy tapes
I miss her
red231 h, 51 m ago

She was a bit overrated lets all be honest here.


I know what you mean but judging from record sales she was liked a lot and whilst that isn't the most important thing it can't be ignored.
Plus the critics and many fellow musicians liked her so all that adds up.
Agharta16 m ago

I know what you mean but judging from record sales she was liked a lot and …I know what you mean but judging from record sales she was liked a lot and whilst that isn't the most important thing it can't be ignored.Plus the critics and many fellow musicians liked her so all that adds up.


before or after she died?
red2313 m ago

before or after she died?


For sales and recognition by other artists then whilst alive; based on the collaborations she had.
With regard to critics then I have no idea or much interest as I don't see it as so imoprtant.
red231 h, 47 m ago

before or after she died?


She won 5 Grammys for this, so think she was pretty well received during her life
Amy Winehouse - back to black.

Is this better than the carplan stuff?
I've got some tyres that need smartening up.
FREEZIN_WOLF6 h, 42 m ago

Amy Winehouse - back to black.Is this better than the carplan stuff? I've …Amy Winehouse - back to black.Is this better than the carplan stuff? I've got some tyres that need smartening up.



Has a short shelf life though.
Vinyl version:

"foobar2000 1.3 / Dynamic Range Meter 1.1.1
log date: 2017-12-24 17:21:51

--------------------------------------------------------------------------------
Analyzed: Amy Winehouse / Back To Black (UK)
--------------------------------------------------------------------------------

DR Peak RMS Duration Track
--------------------------------------------------------------------------------
DR10 -1.25 dB -12.33 dB 3:33 01-Rehab
DR10 -1.88 dB -12.64 dB 4:15 02-You Know I'm No Good
DR12 -0.66 dB -14.34 dB 2:31 03-Me And Mr Jones
DR11 -2.40 dB -14.92 dB 3:13 04-Just Friends
DR10 -1.64 dB -13.90 dB 4:00 05-Back To Black
DR9 -3.01 dB -14.41 dB 2:35 06-Love Is A Losing Game
DR10 -1.62 dB -13.18 dB 3:05 07-Tears Dry On Their Own
DR9 -2.97 dB -13.73 dB 3:40 08-Wake Up Alone
DR11 -2.54 dB -15.16 dB 2:21 09-Some Unholy War
DR10 -1.54 dB -13.67 dB 2:46 10-He Can Only Hold Her
DR11 -1.41 dB -13.63 dB 2:44 11-Addicted
--------------------------------------------------------------------------------

Number of tracks: 11
Official DR value: DR10"


The vinyl version has a higher dynamic ratio than than the CD version and thus should sound better if you have a good enough turntable.

You can have a look at dr.loudness-wars.info for the cd version.
red2322 h, 46 m ago

She was a bit overrated lets all be honest here.


You don't get to sing with a legend like Tony Bennett and be "a bit overrated". Not liking her music and thinking she wasn't great are not the same thing.
SpudUK30 m ago

You don't get to sing with a legend like Tony Bennett and be "a bit …You don't get to sing with a legend like Tony Bennett and be "a bit overrated". Not liking her music and thinking she wasn't great are not the same thing.



Lol! Oh come on hahaha
I saw her perform live in a duet with Prince, whilst I was standing at the edge of the stage 1 metre from both. My favourite song's live performance ever. Both are a sad loss to music.
Post a comment
Avatar
@
    Text