Jeff Buckley 'Grace' 1994 MP3 Google Play £1.99
92°Expired

Jeff Buckley 'Grace' 1994 MP3 Google Play £1.99

6
Found 1st Jan 2015
well worth £1.99!

Happy New Year!!!

320 Kbps MP3 Files

1 - Mojo Pin 5:41
2 - Grace 5:22
3 - Last Goodbye 4:32
4 - Lilac Wine 4:31
5 - So Real 4:40
6 - Hallelujah 6:51
7 - Lover, You Should've Come Over 6:41
8 - Corpus Christi Carol 2:56
9 - Eternal Life 4:52
10 - Dream Brother 5:26

This edition from 1994, sounds much better than 'Legacy' from 2004.
No clipping and much better dynamic range (11).

More info about dynamic range/loudness war dynamicrange.de/en/…nfo

Test results:
DR Peak RMS Filename
-------------------------------------------------------------------------------------
DR11 -0.03 dB -15.63 dB 01 - Mojo Pin.mp3
DR10 -0.01 dB -13.33 dB 02 - Grace.mp3
DR11 over -12.97 dB 03 - Last Goodbye.mp3
DR11 -2.11 dB -17.35 dB 04 - Lilac Wine.mp3
DR10 over -13.25 dB 05 - So Real.mp3
DR13 -0.20 dB -17.12 dB 06 - Hallelujah.mp3
DR11 over -13.89 dB 07 - Lover, You Should've Come Over.mp3
DR10 -4.36 dB -18.14 dB 08 - Corpus Christi Carol.mp3
DR10 over -12.09 dB 09 - Eternal Life.mp3
DR11 -0.02 dB -13.76 dB 10 - Dream Brother.mp3
-------------------------------------------------------------------------------------
Number of files: 10
Official DR value: DR11

6 Comments

one of the best albums ever. rip Jeff.

A lost legend. If you've never properly listened to Jeff, you should deffo get this. It will change your life

Love this album

Got this on vinyl. Brilliant album.

Incredible artist taken to soon. Definitely worth trying at any price but this is incredible.
Post a comment
Avatar
@
    Text